#TITLE:[Neddy]--Zox;
#SUBTITLE:- Canon (Drum & Violin)- Morning_Star;
#ARTIST:Unknown artist;
#TITLETRANSLIT:;
#SUBTITLETRANSLIT:;
#ARTISTTRANSLIT:;
#CREDIT:;
#BANNER:;
#BACKGROUND:;
#LYRICSPATH:;
#CDTITLE:;
#MUSIC:[Neddy]--Zox - Canon (Drum & Violin)- Morning_Star.mp3;
#OFFSET:-4.300;
#SAMPLESTART:100.000;
#SAMPLELENGTH:12.000;
#SELECTABLE:YES;
#BPMS:0.000=150.800;
#STOPS:;
#BGCHANGES:;
// cache tags:
#FIRSTBEAT:0.500;
#LASTBEAT:449.250;
#SONGFILENAME:Songs/Music V.I.P ^_^/[Neddy]--Zox - Canon (Drum & Violin)- Morning_Star/[Neddy]--Zox - Canon (Drum & Violin)- Morning_Star.sm;
#HASMUSIC:1;
#HASBANNER:0;
#MUSICLENGTH:286.179;
// end cache tags

//---------------dance-single - ----------------
#NOTES:
     dance-single:
     :
     Hard:
     15:
     0.559,0.687,0.266,0.517,0.723,895.000,76.000,148.000,0.000,19.000:
0000
0110
0000
0000
0000
1001
0000
0000
,
0000
0101
0000
0000
0000
0000
0110
0000
,
0000
0000
0110
0000
0000
0000
0000
0101
,
0000
0000
0000
0110
0000
0000
0000
0110
,
0000
0000
0000
1001
0000
0000
0000
0000
,
0110
0000
0110
0000
,
1100
0000
0011
0000
,
0000
0110
0220
0000
0330
1001
0000
0000
,
0000
0000
0110
0000
0000
0000
0110
1000
0000
0000
0100
0010
0000
0100
0000
0010
,
0000
0001
0000
0000
0000
0100
0000
1000
0000
0100
0000
0010
0000
0100
0010
0000
,
0010
1000
0100
0000
0001
0000
0010
0000
0000
0100
1000
0100
0000
0010
0000
0100
,
0000
0001
0000
0100
0000
0010
0000
1000
0000
0000
0000
0000
0000
0100
0000
1000
,
0000
0100
0000
0001
0000
0010
0000
0100
0000
1000
0100
0000
0000
0010
0000
0000
,
1000
0000
0100
0000
0000
0000
0010
0001
0000
1000
0000
0100
0000
0010
0000
0000
,
0110
0000
0000
0000
0000
0000
0100
1000
0000
0100
0000
0000
0010
0000
0001
0000
,
1010
0000
0100
0000
0000
0010
0000
0100
0000
0010
0000
0001
0000
1000
0000
0100
,
0000
0010
0000
0001
0000
0000
0000
1010
0000
0000
0000
1100
0000
0000
0000
0110
,
0000
0000
0000
0011
0000
0000
0000
1010
0000
0100
0000
0000
0000
0001
0000
1010
,
0000
0100
0000
0000
0101
0000
0000
0101
0000
0010
0000
0000
0010
0000
0000
0010
,
0000
0000
0010
0000
0000
0010
0000
0100
0000
0000
0000
0000
0000
1010
0000
0100
,
0000
0100
0000
0100
0000
0100
0000
0000
0100
0000
0000
0010
0000
0100
0000
0001
,
0000
0000
0010
0000
0000
1000
0000
0000
0100
0000
0000
0010
0000
0000
0000
0010
,
0000
0000
0100
1000
0000
0100
0000
0010
0000
0001
0000
0010
0000
0100
0000
1000
,
0000
0100
0000
0010
0000
0001
0000
0110
0000
0000
0000
1010
0000
0110
0110
0000
,
0110
0110
0000
0110
0110
1001
0220
0000
0000
0000
2330
0000
3200
0000
0320
0000
,
0030
2000
3200
0302
2003
3200
0302
0203
,
2300
0000
3020
0000
0032
0000
0203
0000
0300
0010
0001
0000
2000
0000
3200
0000
,
0320
0230
0302
2003
3000
0000
0220
0332
,
2003
3200
0302
2003
3200
0320
2030
3200
,
0302
0203
0302
2003
3020
0230
0302
2003
,
3020
0230
0302
2003
3020
0230
0302
0203
,
0320
2030
3002
2203
0000
0000
0000
0000
,
0000
0000
0000
0000
,
0000
0000
0000
0001
0000
0010
0000
0011
,
0000
0000
0000
0000
3301
0000
0000
0000
0000
0000
0110
0000
0100
0010
0001
0010
,
0000
0100
1000
0100
0010
0100
0001
0010
0100
1000
0001
0010
0100
0010
0100
0001
,
0010
1000
0100
0001
0010
0100
0000
0010
0001
0100
0010
1000
0100
0001
0010
0100
,
1000
0100
1000
0010
0100
0001
0010
0000
0100
0010
0001
0000
0000
0000
1000
0100
,
0001
0010
0100
1000
0001
0100
0010
0100
1000
0001
0010
1000
0000
0000
0110
0001
,
1000
0100
0000
0010
1000
0100
0001
0010
0010
1000
0100
0001
0100
0010
1000
0100
,
0011
0000
0000
0110
0110
0110
0220
0000
0330
0000
1001
0000
0110
0001
1000
0100
,
0010
0100
0010
0001
0010
0100
1000
0000
0020
0000
0000
0000
0030
0000
1000
0000
,
0200
0000
0320
0032
2003
3200
2300
3002
,
0203
0000
0320
0000
2030
0000
3020
0000
0000
0002
0030
0000
2003
0000
3000
0200
,
0000
0000
0320
0000
0000
0032
0000
0000
2003
0000
3000
0200
0000
0000
0302
0000
,
0203
0000
0320
0000
2030
0000
3002
0000
0110
1000
0100
0010
0100
1000
0100
0010
,
0100
1000
0100
0010
0100
1000
0100
0010
0100
1000
0100
0010
0100
1000
0100
0010
,
0100
1000
0100
0010
0010
0100
1000
1000
0100
0010
0100
1000
0100
0010
0010
0100
,
1000
0100
0010
0100
0010
0100
1000
0100
0010
1000
0100
0010
0100
1000
0100
1000
,
0100
0010
0100
1000
0010
0100
1000
0100
0010
1000
0100
0010
1000
0100
0010
1000
,
0100
0010
1000
0100
0010
1000
0100
0010
1000
0100
0010
0100
1000
0100
0010
1000
,
0203
0300
0200
0300
0200
0000
0000
0000
0300
0000
0220
0000
0000
0000
0000
2332
,
0000
0000
0000
0000
0000
3223
0000
1000
0000
0331
0000
0010
0000
1100
0000
0000
,
0110
0000
0000
0000
0000
0000
0000
0000
0000
0000
0000
0000
1000
0000
0000
0000
0110
0000
0000
0000
0002
0000
0000
0000
0003
0000
0000
1000
0000
0000
0000
0000
,
0100
0000
0000
0000
0000
0010
0000
0000
0000
0000
1000
0000
0000
0000
0000
0000
0100
0000
0000
0000
0000
0000
0010
0000
0000
0000
0000
0000
0001
0000
0000
0000
,
0000
1000
0000
0000
0100
0000
0010
0000
0000
0001
0000
0010
0000
0000
1000
0000
,
0100
0000
0000
0001
0000
0000
0110
0000
0000
1100
0010
0001
0000
0000
1010
0001
,
0100
0010
0100
1000
0001
0100
0010
0100
0001
0010
1000
0100
0001
0000
1000
0001
,
0100
0010
0100
0000
0010
1000
0001
0100
0010
1000
0001
0100
0010
1000
0100
0000
,
1000
0100
0001
0010
0100
0001
1000
0010
0100
0001
1000
0100
0001
0010
0100
0010
,
1000
0100
0001
0100
0010
1000
0001
0100
0010
0000
0001
0100
0010
1000
0001
0100
,
0010
1000
0100
0001
0010
1000
0001
0100
0010
1000
0100
0001
2000
0000
0000
0000
,
0001
0010
0100
0000
0001
0100
0010
0100
3200
0001
1000
0010
1000
0001
0010
1000
,
0010
0001
0320
1000
0100
0000
1000
0100
0001
0100
1000
0100
0001
0100
2030
0010
,
0100
0001
0100
0010
0100
0001
0010
0001
3200
0010
1000
0001
1000
0010
1000
0001
,
0010
1000
0010
0001
0320
1000
0100
0001
0100
0001
0100
1000
0100
0001
0230
1000
,
0010
0001
1000
0010
1000
0001
0010
1000
0320
1000
0100
0001
0100
1000
0100
0001
,
0100
1000
0100
0000
1231
0000
0000
0000
0000
0000
0000
0000
0000
0000
0320
0000
,
0000
0000
0230
0000
,
0000
0000
0320
0000
0000
0000
0000
0230
,
0000
0010
0000
1000
0000
0010
0000
0001
0320
1000
0000
0000
0000
0000
0000
0000
,
0000
0000
2030
0000
0000
0100
0000
0000
0001
0000
3000
0010
0000
0000
0200
0000
,
0000
0000
0000
0300
0110
2000
0000
0000
,
0000
3000
0020
0000
0000
0000
0030
0200
,
0000
0000
0000
0300
0002
0000
0000
0000
,
0000
2003
0000
0000
0000
0000
0000
3200
,
0000
0000
0320
0000
,
0000
0000
0230
0000
0000
0000
0300
0200
,
0000
0000
0000
0000
0000
0000
0300
0000
0020
0000
0000
0000
0000
0100
0000
1000
,
0030
0000
0100
0000
0200
0000
0000
0010
0000
0000
1000
0000
0302
0000
0000
0000
,
0000
2000
0003
0000
0200
3000
0000
0000
,
0300
0000
0020
0000
0000
0000
0000
0000
0000
0000
0030
0000
0000
2000
0000
0000
,
0000
0000
0000
3000
0200
0000
0000
0000
,
0300
0020
0000
0000
0000
0030
0000
0200
,
0000
0000
0000
0300
0020
0000
0000
0000
,
0030
0200
0000
0000
0000
0300
0000
0002
,
0000
0000
0000
0003
2000
0000
0000
0000
,
3000
0020
0000
0030
,
0000
0000
0000
0000
0000
0000
2000
0000
0000
0000
0001
0010
0100
0000
0001
0100
,
0010
0100
3200
0001
1000
0010
1000
0001
0010
1000
0010
0001
0320
1000
0100
0000
,
1000
0100
0001
0100
1000
0100
0001
0100
2030
0010
0100
0001
0100
0010
0100
0001
,
0010
0001
3200
0010
1000
0001
1000
0010
1000
0001
0010
1000
0010
0001
0320
1000
,
0100
0001
0100
0001
0100
1000
0100
0001
0230
1000
0010
0001
1000
0010
1000
0001
,
0010
1000
0300
1000
0100
0001
0100
1000
0100
0001
0100
1000
0002
0000
0110
1000
,
0100
0010
0100
1000
0100
0010
0100
1000
0100
0010
0100
1000
0100
0010
0100
1000
,
0100
0010
0100
1000
0100
0010
0100
1000
0100
0010
0010
0100
1000
1000
0100
0010
,
0100
1000
0100
0010
0010
0100
1000
0100
0010
0100
0010
0100
1000
0100
0010
1000
,
0100
0010
0100
1000
0100
1000
0100
0010
0100
1000
0010
0100
1000
0100
0010
1000
,
0100
0010
1000
0100
0010
1000
0100
0010
1000
0100
0010
1000
0100
0010
1000
0100
,
0223
0000
1000
0000
0331
0000
0010
0000
1100
0000
0000
0110
0000
0000
0000
0000
,
0000
0000
1000
0000
0000
0000
0110
0000
0000
0000
0002
0000
0000
0000
0003
0000
0000
1000
0000
0000
0000
0000
0100
0000
0000
0000
0000
0010
0000
0000
0000
0000
,
1000
0000
0000
0100
0000
0000
0010
0000
0000
0001
0000
0000
1000
0000
0000
0100
,
0000
0010
0000
0000
0001
0000
0010
0000
0000
1000
0000
0100
0000
0000
0001
0000
,
0000
0110
0000
0000
1100
0010
0001
0000
0000
1010
0001
0100
0010
0100
1000
0001
,
0100
0010
0100
0001
0010
1000
0100
0001
0000
1000
0001
0100
0010
0100
0000
0010
,
1000
0001
0100
0010
1000
0001
0100
0010
1000
0100
0000
1000
0100
0001
0010
0100
,
0001
1000
0010
0100
0001
1000
0100
0001
0010
0100
0010
1000
0100
0001
0100
0010
,
1000
0001
0100
0010
0000
0001
0100
0010
1000
0001
0100
0010
1000
0100
0001
0010
,
1000
0220
0000
1000
0000
0331
0000
0010
0000
1100
0000
0000
0110
0000
0000
0000
,
0000
0000
0000
0000
1000
0000
0000
0000
0110
0000
0000
0000
0002
0000
0000
0000
0003
0000
0000
1000
0000
0000
0000
0000
0220
0000
0000
0000
0000
0000
0000
0000
,
0000
0000
0000
0000
,
0000
0000
0000
0000
,
0000
0000
0000
0000
0000
0330
0000
0000
0000
0000
0000
0000
0000
0000
0000
0000
;
